<?xml version="1.0" standalone="no"?>
<!DOCTYPE svg PUBLIC "-//W3C//DTD SVG 1.1//EN" "http://www.w3.org/Graphics/SVG/1.1/DTD/svg11.dtd">
<svg xmlns="http://www.w3.org/2000/svg">
<defs>
<font id="material" horiz-adv-x="1000" >
<font-face font-family="material" font-weight="400" font-stretch="normal" units-per-em="1000" ascent="850" descent="-150" />
<missing-glyph horiz-adv-x="1000" />
<glyph glyph-name="home" unicode="&#xe800;" d="M417-4v250h166v-250h209v333h125l-417 375-417-375h125v-333h209z" horiz-adv-x="1000" />

<glyph glyph-name="ftp" unicode="&#xe801;" d="M810 225h-620v388h620m0 77h-310l-77 77h-233a78 78 0 0 1-77-77v-465a78 78 0 0 1 77-77h620a78 78 0 0 1 78 77v388a78 78 0 0 1-78 77z m-233-602h-39v77h-78v-77h-39c-21 0-40-17-40-40h-271v-77h271c0-21 17-40 40-40h154c21 0 40 17 40 40h270v77h-270c2 23-17 40-38 40z" horiz-adv-x="1000" />

<glyph glyph-name="forward" unicode="&#xe802;" d="M500 663l-54-55 219-218h-477v-80h475l-219-218 56-54 313 312-313 313z" horiz-adv-x="1000" />

<glyph glyph-name="file" unicode="&#xe803;" d="M640 767h-407c-25 0-50-17-50-40v-748c0-25 25-46 50-46h544c23 0 40 21 40 46v621l-177 167z" horiz-adv-x="1000" />

<glyph glyph-name="dir" unicode="&#xe804;" d="M417 683h-250c-46 0-84-37-84-83l0-500c0-46 38-83 84-83h666c46 0 84 37 84 83v417c0 46-38 83-84 83h-333l-83 83z" horiz-adv-x="1000" />

<glyph glyph-name="opendir" unicode="&#xe805;" d="M752 35h-589c-44 0-80 36-80 80v470c0 44 36 80 80 80h235l79-80h273c44 0 79-35 79-79l0 0h-666v-393l85 314h669l-90-333c-8-34-39-59-75-59z" horiz-adv-x="1000" />

<glyph glyph-name="reload" unicode="&#xe806;" d="M354 615l61-75h275c20 0 37-17 37-38v-189h-114l152-190 152 190h-115v189c0 63-52 115-114 115l-334-2 0 0z m-119-38l-152-189h115v-190c0-63 52-115 115-115h333l-61 75h-275c-20 0-37 17-37 38v189h115l-153 192z" horiz-adv-x="1000" />

<glyph glyph-name="open" unicode="&#xe807;" d="M833 100h-666v417h666m0 83h-333l-83 83h-250c-46 0-84-37-84-83v-500c0-46 38-83 84-83h666c46 0 84 37 84 83v417c0 46-38 83-84 83z" horiz-adv-x="1000" />

<glyph glyph-name="mkdir" unicode="&#xe808;" d="M833 600h-333l-83 83h-250c-46 0-84-37-84-83l0-500c0-46 38-83 84-83h666c46 0 84 37 84 83v417c0 46-38 83-84 83z m-41-333h-125v-125h-84v125h-125v83h125v125h84v-125h125v-83z" horiz-adv-x="1000" />

<glyph glyph-name="mkfile" unicode="&#xe809;" d="M542 475h229l-229 229v-229m-292 292h333l250-250v-500c0-46-37-84-83-84h-500c-46 0-83 38-83 84v666c0 46 37 84 83 84m208-542v125h-83v-125h-125v-83h125v-125h83v125h125v83h-125z" horiz-adv-x="1000" />

<glyph glyph-name="rm" unicode="&#xe80a;" d="M223 25c0-52 42-92 92-92h370c53 0 92 42 92 92v556h-554v-556z m602 696h-162l-46 46h-234l-45-46h-163v-92h648l2 92 0 0z" horiz-adv-x="1000" />

<glyph glyph-name="trash" unicode="&#xe80b;" d="M896 767l-133-759c-9-41-44-75-88-75h-350c-44 0-81 32-87 75l-134 759h792m-688-88l117-658h350l117 658h-584m161-571v175h175v-175h-175m175 213l-140 139 140 140 139-140-139-139z" horiz-adv-x="1000" />

<glyph glyph-name="restore" unicode="&#xe80c;" d="M560 706c-197 0-358-160-358-356h-119l159-158 158 158h-119c0 154 125 277 277 277s277-125 277-277-125-277-277-277c-60 0-114 21-160 52l-56-56c60-48 137-73 218-73 198 0 357 160 357 356s-161 354-357 354m80-356c0 44-36 79-80 79s-79-37-79-79 36-79 79-79 80 35 80 79z" horiz-adv-x="1000" />

<glyph glyph-name="copy" unicode="&#xe80d;" d="M671 767h-454c-42 0-75-34-75-75v-532h75v532h454v75z m112-152h-416c-42 0-75-34-75-75v-532c0-41 33-75 75-75h416c42 0 75 34 75 75v532c2 41-33 75-75 75z m0-607h-416v532h416v-532z" horiz-adv-x="1000" />

<glyph glyph-name="cut" unicode="&#xe80e;" d="M402 531c11 21 15 44 15 69 0 92-75 167-167 167s-167-75-167-167 75-167 167-167c25 0 48 7 69 15l98-98-98-98c-21 11-44 15-69 15-92 0-167-75-167-167s75-167 167-167 167 75 167 167c0 25-7 48-15 69l98 98 292-292h125v42l-515 514z m-152-14c-46 0-83 37-83 83s37 83 83 83 83-37 83-83-37-83-83-83z m0-500c-46 0-83 37-83 83s37 83 83 83 83-37 83-83-37-83-83-83z m250 312c-10 0-21 11-21 21s11 21 21 21 21-11 21-21-11-21-21-21z m292 396l-250-250 83-83 292 291v42h-125z" horiz-adv-x="1000" />

<glyph glyph-name="paste" unicode="&#xe80f;" d="M765 692h-159c-14 43-56 75-106 75s-92-32-106-75h-159c-41 0-75-34-75-75v-607c0-41 34-75 75-75h532c41 0 75 34 75 75v605c0 41-36 77-77 77z m-265 0c21 0 38-17 38-38s-17-39-38-39-37 16-37 37 16 40 37 40z m265-684h-530v607h75v-115h380v115h75v-607z" horiz-adv-x="1000" />

<glyph glyph-name="getfile" unicode="&#xe810;" d="M250 767l500-467-242-21 138-304-92-42-133 309-171-163v688" horiz-adv-x="1000" />

<glyph glyph-name="duplicate" unicode="&#xe811;" d="M850 510l-115 115c-2 2-6 4-10 4h-52v6c0 5-2 7-4 11l-115 114c-2 5-6 7-10 7h-356c-23 0-42-19-42-42v-617c0-23 19-41 42-41h139v-92c0-23 19-42 42-42h444c22 0 41 19 41 42v527c0 2-2 6-4 8z m-658-395v606h329v-92c0-8 8-16 17-16h89v-498h-435z m618-136h-437v92h260c23 0 42 19 42 42v472h29v-91c0-9 9-17 17-17h89v-498z m-118 117v-81c0-7 4-11 10-11h31c30 0 52 23 52 52 3 27-22 50-52 50h-31c-6 0-10-4-10-10z m23-13h18c17 0 30-12 30-29 0-14-13-27-30-27h-18v56z" horiz-adv-x="1000" />

<glyph glyph-name="rename" unicode="&#xe812;" d="M500 725v-83h83c23 0 42-19 42-42v-500c0-23-19-42-42-42h-83v-83h83c32 0 61 12 84 33 23-21 52-33 83-33h83v83h-83c-23 0-42 19-42 42v42h167 42v41 334 41h-42-167v42c0 23 19 42 42 42h83v83h-83c-31 0-60-12-83-33-23 21-52 33-84 33h-83z m-417-167v-41-334-41h42 375v83h-333v250h333v83h-375-42z m625-83h125v-250h-125v250z m-458-83v-84h208v84h-208z" horiz-adv-x="1000" />

<glyph glyph-name="edit" unicode="&#xe813;" d="M83 106v-173h173l513 513-173 173-513-513z m819 473c19 19 19 48 0 65l-108 108c-19 19-48 19-65 0l-85-85 173-173c2 0 85 85 85 85z" horiz-adv-x="1000" />

<glyph glyph-name="quicklook" unicode="&#xe814;" d="M500 633c-190 0-352-116-417-283 65-167 227-283 417-283s352 116 417 283c-65 167-227 283-417 283z m0-473c-104 0-190 86-190 190s86 190 190 190 190-86 190-190-86-190-190-190z m0 305c-62 0-115-50-115-115s50-115 115-115 115 50 115 115-52 115-115 115z" horiz-adv-x="1000" />

<glyph glyph-name="upload" unicode="&#xe815;" d="M352 129h294v294h196l-342 344-344-344h196v-294z m-196-98h686v-98h-686v98z" horiz-adv-x="1000" />

<glyph glyph-name="download" unicode="&#xe816;" d="M844 473h-196v294h-296v-294h-196l344-344 344 344z m-688-442v-98h686v98h-686z" horiz-adv-x="1000" />

<glyph glyph-name="info" unicode="&#xe817;" d="M458 142h84v250h-84v-250z m42 625c-231 0-417-186-417-417s186-417 417-417 417 188 417 417-188 417-417 417z m0-750c-183 0-333 150-333 333s150 333 333 333 333-150 333-333-150-333-333-333z m-42 458h84v83h-84v-83z" horiz-adv-x="1000" />

<glyph glyph-name="extract" unicode="&#xe818;" d="M896 665l-65 77c-12 14-31 25-54 25h-554c-21 0-42-11-54-25l-65-77c-12-17-21-38-21-59v-579c0-52 42-94 92-94h648c52 0 92 42 92 92v579c2 23-7 44-19 61z m-396-198l254-254h-162v-92h-186v92h-162l256 254z m-319 208l38 46h556l44-46h-638z" horiz-adv-x="1000" />

<glyph glyph-name="archive" unicode="&#xe819;" d="M896 665l-65 77c-12 14-31 25-54 25h-554c-21 0-42-11-54-25l-65-77c-12-17-21-38-21-59v-579c0-52 42-94 92-94h648c52 0 92 42 92 92v579c2 23-7 44-19 61z m-396-569l-254 254h162v92h186v-92h162l-256-254z m-319 579l38 46h556l44-46h-638z" horiz-adv-x="1000" />

<glyph glyph-name="view" unicode="&#xe81a;" d="M83 481h175v175h-175v-175z m0-218h175v175h-175v-175z m219 0h175v175h-175v-175z m221 0h175v175h-175v-175z m-221 218h175v175h-175v-175z m221 175v-175h175v175h-175z m219-393h175v175h-175v-175z m-659-219h175v175h-175v-175z m219 0h175v175h-175v-175z m221 0h175v175h-175v-175z m219 0h175v175h-175v-175z m0 612v-175h175v175h-175z" horiz-adv-x="1000" />

<glyph glyph-name="view-list" unicode="&#xe81b;" d="M83 252h196v196h-196v-196z m0-246h196v196h-196v-196z m0 492h196v196h-196v-196z m246-246h588v196h-588v-196z m0-246h588v196h-588v-196z m0 688v-196h588v196h-588z" horiz-adv-x="1000" />

<glyph glyph-name="help" unicode="&#xe81c;" d="M458 100h84v83h-84v-83m42 667c-229 0-417-188-417-417s188-417 417-417 417 188 417 417-188 417-417 417m0-750c-183 0-333 150-333 333s150 333 333 333 333-150 333-333-150-333-333-333m0 583c-92 0-167-75-167-167h84c0 46 37 84 83 84s83-38 83-84c0-83-125-73-125-208h84c0 94 125 104 125 208 0 92-75 167-167 167z" horiz-adv-x="1000" />

<glyph glyph-name="resize" unicode="&#xe81d;" d="M167 767c-46 0-84-38-84-84v-41h84v41h41v84h-41z m125 0v-84h83v84h-83z m166 0v-84h84v84h-84z m167 0v-84h83v84h-83z m167 0v-84h41v-41h84v41c0 46-38 84-84 84h-41z m-709-209v-83h84v83h-84z m750 0v-83h84v83h-84z m-500-41v-84h192l-210-208h-232v-83-125c0-46 38-84 84-84h208v84 148l208 210v-192h84v292 42h-42-292z m-250-125v-84h84v84h-84z m750 0v-84h84v84h-84z m0-167v-83h84v83h-84z m0-167v-41h-41v-84h41c46 0 84 38 84 84v41h-84z m-375-41v-84h84v84h-84z m167 0v-84h83v84h-83z" horiz-adv-x="1000" />

<glyph glyph-name="link" unicode="&#xe81e;" d="M163 350c0 71 58 129 129 129h166v79h-166c-115 0-209-93-209-208s94-208 209-208h166v79h-166c-71 0-129 58-129 129z m170-42h334v84h-334v-84z m375 250h-166v-79h166c71 0 130-58 130-129s-59-129-130-129h-166v-79h166c115 0 209 93 209 208s-94 208-209 208z" horiz-adv-x="1000" />

<glyph glyph-name="search" unicode="&#xe81f;" d="M679 242h-37l-13 12c46 54 75 125 75 202-2 171-139 311-310 311s-311-140-311-311 140-310 311-310c77 0 148 27 202 75l12-13v-37l238-238 71 71-238 238z m-285 0c-119 0-215 96-215 214s96 215 215 215 214-96 214-215-98-214-214-214z" horiz-adv-x="1000" />

<glyph glyph-name="sort" unicode="&#xe820;" d="M394 635l133 132 131-132h-264m264-570l-131-132-131 132h262m-277 191h-116l-32-110h-95l125 406h122l128-406h-100l-32 110m-104 67h92l-25 85-11 40-10 40h-2l-8-40-11-40-25-85m273-177v52l194 275v2h-175v77h294v-54l-190-271v-2h192v-77l-315-2 0 0z" horiz-adv-x="1000" />

<glyph glyph-name="rotate-r" unicode="&#xe821;" d="M658 567l-200 200v-136c-173-21-308-168-308-350s133-327 308-348v90c-125 21-220 129-220 260s95 238 220 259v-171l200 196z m192-240c-8 61-31 121-71 171l-62-63c23-33 37-70 46-108h87z m-304-304v-90c60 9 121 32 171 71l-63 63c-33-23-71-38-108-44z m171 106l62-62c40 52 65 110 71 171h-90c-4-38-20-75-43-109z" horiz-adv-x="1000" />

<glyph glyph-name="mime_archive" unicode="&#xe822;" d="M83 767h834v-186h-834v186m46-232h742v-602h-742v602m254-139c-12 0-23-11-23-23v-69h278v69c0 12-11 23-23 23h-232z" horiz-adv-x="1000" />

<glyph glyph-name="netmount" unicode="&#xe823;" d="M708 767c46 0 84-38 84-84v-416c0-46-38-84-84-84h-166v-83h41c23 0 42-19 42-42h292v-83h-292c0-23-19-42-42-42h-166c-23 0-42 19-42 42h-292v83h292c0 23 19 42 42 42h41v83h-166c-46 0-84 38-84 84v416c0 46 38 84 84 84h416z" horiz-adv-x="1000" />

<glyph glyph-name="netunmount" unicode="&#xe824;" d="M917 342c4 229-179 421-409 425-231 4-420-179-425-409-4-229 180-421 409-425s421 180 425 409z m-750 14c4 184 156 332 339 327 77-2 148-29 202-73l-475-458c-43 56-68 127-66 204z m125-266l475 458c43-56 68-129 66-206-4-184-154-332-339-327-77 4-148 31-202 75z" horiz-adv-x="1000" />

<glyph glyph-name="places" unicode="&#xe825;" d="M750 767h-500c-46 0-83-38-83-84v-666c0-46 37-84 83-84h500c46 0 83 38 83 84v666c0 46-37 84-83 84z m-500-84h208v-333l-104 63-104-63v333z" horiz-adv-x="1000" />

<glyph glyph-name="chmod" unicode="&#xe826;" d="M381 302l-298 83 55 167 291-119-19 334h186l-19-334 286 113 54-173-298-83 196-250-148-107-173 273-167-262-148 102 202 256z" horiz-adv-x="1000" />

<glyph glyph-name="accept" unicode="&#xe827;" d="M500 767c-231 0-417-186-417-417 0-229 186-417 417-417 229 0 417 188 417 417 0 231-188 417-417 417z m-83-625l-209 208 59 58 150-150 316 317 59-58-375-375z" horiz-adv-x="1000" />

<glyph glyph-name="menu" unicode="&#xe828;" d="M83 73h834v92h-834v-92z m0 231h834v92h-834v-92z m0 323v-92h834v92h-834z" horiz-adv-x="1000" />

<glyph glyph-name="colwidth" unicode="&#xe829;" d="M377 31h246v638h-246v-638z m-294 0h246v638h-246v-638z m588 638v-638h246v638h-246z" horiz-adv-x="1000" />

<glyph glyph-name="fullscreen" unicode="&#xe82a;" d="M202 231h-119v-298h298v119h-179v179z m-119 238h119v179h179v119h-298v-298z m715-417h-179v-119h298v298h-119v-179z m-179 715v-119h179v-179h119v298h-298z" horiz-adv-x="1000" />

<glyph glyph-name="unfullscreen" unicode="&#xe82b;" d="M83 113h180v-180h118v298h-298v-118z m180 475h-180v-119h298v298h-118c0 0 0-179 0-179z m356-655h119v180h179v118h-298v-298z m119 655v179h-119v-298h298v119c0 0-179 0-179 0z" horiz-adv-x="1000" />

<glyph glyph-name="empty" unicode="&#xe82c;" d="M813 463l-42-75-531 304 43 75 134-77 58 18 190-108 16-60 132-77m-628-442v525h221l302-175v-350c0-48-39-88-87-88h-348c-48 0-88 40-88 88z" horiz-adv-x="1000" />

<glyph glyph-name="undo" unicode="&#xe82d;" d="M375 767l-292-209 292-208v125h188c106 0 187-81 187-187s-81-188-187-188h-480v-167h480c195 0 354 159 354 355s-159 354-354 354h-188v125z" horiz-adv-x="1000" />

<glyph glyph-name="group" unicode="&#xe82e;" d="M875 506v-406c-8-25-19-35-44-35h-525c-27 0-43 14-43 43v615c0 27 14 44 43 44h261 6v-9-206c0-4 0-8 2-14 4-19 19-30 40-30h252c6-2 6-2 8-2z m-652 129v-12-560c0-19 4-34 23-40 6-4 14-4 23-4h458 11v-23-25c-3-17-15-31-30-36-4-2-6-2-14-2h-525c-21 0-36 11-40 29-4 7-4 9-4 15v617c0 25 15 41 42 41h56z m381 130l271-232c-4 0-4-2-6-2h-221c-25 0-44 15-44 42v183 9z" horiz-adv-x="1000" />

<glyph glyph-name="preference" unicode="&#xe82f;" d="M810 310c3 13 3 28 3 42s-3 27-3 42l88 69c8 6 10 16 4 27l-83 143c-6 9-17 13-25 9l-104-42c-21 17-46 31-71 42l-15 108c-2 8-10 17-21 17h-166c-11 0-19-9-21-17l-17-110c-25-11-48-25-71-42l-104 42c-8 4-21 0-25-9l-83-143c-6-9-2-21 4-28l90-68c0-15-2-27-2-42s2-27 2-42l-88-68c-8-7-10-17-4-27l83-144c7-9 17-13 25-9l104 42c21-17 46-31 71-42l17-110c2-10 10-17 21-17h166c11 0 19 9 21 17l17 110c25 11 48 25 71 42l104-42c10-4 21 0 25 9l83 144c7 8 2 20-4 27l-92 70z m-310-106c-81 0-146 65-146 146s65 146 146 146 146-65 146-146-65-146-146-146z" horiz-adv-x="1000" />

<glyph glyph-name="mkdirin" unicode="&#xe830;" d="M583 100v125h-166v167h166v125l209-209m41 292h-333l-83 83h-250c-46 0-84-37-84-83v-500c0-46 38-83 84-83h666c46 0 84 37 84 83v417c0 46-38 83-84 83z" horiz-adv-x="1000" />

<glyph glyph-name="selectall" unicode="&#xe831;" d="M167 767c-46 0-84-38-84-84v-41h84v41h41v84h-41z m125 0v-84h83v84h-83z m166 0v-84h84v84h-84z m167 0v-84h83v84h-83z m167 0v-84h41v-41h84v41c0 46-38 84-84 84h-41z m-709-209v-83h84v83h-84z m209 0v-83h416v83h-416z m541 0v-83h84v83h-84z m-750-166v-84h84v84h-84z m209 0v-84h416v84h-416z m541 0v-84h84v84h-84z m-750-167v-83h84v83h-84z m209 0v-83h416v83h-416z m541 0v-83h84v83h-84z m-750-167v-41c0-46 38-84 84-84h41v84h-41v41h-84z m750 0v-41h-41v-84h41c46 0 84 38 84 84v41h-84z m-541-41v-84h83v84h-83z m166 0v-84h84v84h-84z m167 0v-84h83v84h-83z" horiz-adv-x="1000" />

<glyph glyph-name="selectnone" unicode="&#xe832;" d="M83 683c0 46 38 84 84 84h125v-84h-125v-125h-84v125m834 0v-125h-84v125h-125v84h125c46 0 84-38 84-84m-84-666v125h84v-125c0-46-38-84-84-84h-125v84h125m-750 0v125h84v-125h125v-84h-125c-46 0-84 38-84 84m334 750h166v-84h-166v84m0-750h166v-84h-166v84m416 416h84v-166h-84v166m-750 0h84v-166h-84v166z" horiz-adv-x="1000" />

<glyph glyph-name="selectinvert" unicode="&#xe833;" d="M175 767h92v-92h91v92h92v-92h92v92h91v-92h92v92h92v-92h100v-92h-92v-91h92v-92h-92v-92h92v-91h-92v-92h92v-92h-92v-100h-92v92h-91v-92h-92v92h-92v-92h-91v92h-92v-92h-100v92h-92v92h92v91h-92v92h92v92h-92v91h92v92h-92v100h92v92z" horiz-adv-x="1000" />

<glyph glyph-name="lock" unicode="&#xe834;" d="M500 131c44 0 79 36 79 79s-35 80-79 80-79-36-79-80 35-79 79-79z m238 359h-40v79c0 108-88 198-198 198s-198-90-198-198v-79h-39c-44 0-80-36-80-80v-395c0-44 36-80 80-80h477c43 0 79 36 79 80v395c-2 44-38 80-81 80z m-361 79c0 69 54 123 123 123s123-54 123-123v-79h-246v79z m361-556h-475v395h477v-395z" horiz-adv-x="1000" />

<glyph glyph-name="perms" unicode="&#xe835;" d="M738 490h-40v79c0 108-88 198-198 198s-198-90-198-198v-79h-39c-44 0-80-36-80-80v-395c0-44 36-80 80-80h477c43 0 79 36 79 80v395c-2 44-38 80-81 80z m-238-359c-44 0-79 36-79 79s35 80 79 80 79-36 79-80-35-79-79-79z m123 359h-246v79c0 69 54 123 123 123s123-54 123-123v-79z" horiz-adv-x="1000" />

<glyph glyph-name="unlocked" unicode="&#xe836;" d="M500 131c44 0 79 36 79 79s-35 80-79 80-79-36-79-80 35-79 79-79z m238 359h-40v79c0 108-88 198-198 198s-198-90-198-198h75c0 69 54 123 123 123s123-54 123-123v-79h-360c-44 0-80-36-80-80v-395c0-44 36-80 80-80h477c43 0 79 36 79 80v395c-2 44-38 80-81 80z m0-477h-475v395h477v-395z" horiz-adv-x="1000" />

<glyph glyph-name="symlink" unicode="&#xe837;" d="M917 373l-325 325v-185c-323-46-463-280-509-511 117 163 277 236 509 236v-190l325 325z" horiz-adv-x="1000" />

<glyph glyph-name="resizable" unicode="&#xe838;" d="M917-67h-167v167h167v-167m0 334h-167v166h167v-166m-334-334h-166v167h166v-167m0 334h-166v166h166v-166m-333-334h-167v167h167v-167m667 667h-167v167h167v-167z" horiz-adv-x="1000" />

<glyph glyph-name="close" unicode="&#xe839;" d="M917 683l-84 84-333-334-333 334-84-84 334-333-334-333 84-84 333 334 333-334 84 84-334 333 334 333z" horiz-adv-x="1000" />

<glyph glyph-name="plus" unicode="&#xe83a;" d="M917 290h-357v-357h-118v357h-359v118h357v359h118v-357h359v-120z" horiz-adv-x="1000" />

<glyph glyph-name="return" unicode="&#xe83b;" d="M513 494c-109 0-207-40-282-106l-146 145v-366h367l-148 150c56 48 129 77 209 77 143 0 266-94 308-225l96 31c-54 171-215 294-404 294z" horiz-adv-x="1000" />

<glyph glyph-name="minus" unicode="&#xe83c;" d="M917 292h-834v118h834v-118z" horiz-adv-x="1000" />

<glyph glyph-name="hdd" unicode="&#xe83d;" d="M167 767l-84-500h834l-84 500h-666z m-84-542v-292h834v292h-834z m84-83h41v-84h42v84h42v-84h41v84h42v-84h42v84h41v-84h42v84h42v-84h41v84h42v-84-41h-42-41-42-42-41-42-42-41-42-42-41v41 84z m604 0c35 0 62-27 62-63s-27-62-62-62-63 27-63 62 27 63 63 63z" horiz-adv-x="1000" />

<glyph glyph-name="sql" unicode="&#xe83e;" d="M596 219h169c16 0 29-13 29-29v-228c0-16-13-29-29-29h-169c-17 0-29 13-29 29v230c0 14 12 27 29 27m83-27c-48 0-85-38-85-86 0-46 37-85 85-85l-12 31c-4 6-2 15 6 19l15 8c6 4 14 2 18-6l27-33c19 14 32 39 32 66 0 48-38 86-86 86m0-71a14 14 0 1 0 0-29c-8 0-12 6-12 14s6 15 12 15m-71-127a14 14 0 1 1 0-29 14 14 0 1 1 0 29m73 66l36-89 37 21-60 75-13-7z m-181-43c-77 0-144 12-190 33-22 10-39 21-50 29s-10 17-10 21v54c8-4 17-10 27-14 61-25 138-40 223-40v83c-77 0-144 13-190 34-22 10-39 21-50 29s-10 17-10 21v54c8-4 17-11 27-15 61-25 138-39 223-39s163 14 223 39c10 4 19 11 27 15v-54-4h83v4 333c0 31-14 58-35 79s-46 36-75 48c-60 25-138 40-223 40s-162-15-223-40c-29-12-56-27-75-48s-35-48-35-79v-333-167c0-31 14-58 35-79s46-38 75-50c61-23 138-38 223-38v84z m-240 602c11 8 28 21 50 29 46 21 115 35 190 35s144-14 190-33c23-10 39-21 50-29s10-17 10-21 0-10-10-19-27-21-50-29c-46-21-115-35-190-35s-144 14-190 33c-22 10-39 21-50 29s-10 17-10 21 0 10 10 19z m-10-131c8-5 17-11 27-15 61-25 138-40 223-40s163 15 223 40c10 4 19 10 27 15v-55c0-4-2-10-10-20s-27-21-50-30c-46-20-113-33-190-33s-144 13-190 33c-22 11-39 21-50 30s-10 16-10 20v55z" horiz-adv-x="1000" />

<glyph glyph-name="dropbox" unicode="&#xe83f;" d="M665 123l-165 125-160-125-94 56v-60l254-169 256 167v60c0 0-91-54-91-54z m252 471l-246 156-171-140 256-150 161 134z m-834-269l252-150 165 127-242 154-175-131z m252 425l-252-162 175-132 242 154-165 140z m165-448l167-127 250 150-161 135-256-158z" horiz-adv-x="1000" />

<glyph glyph-name="googledrive" unicode="&#xe840;" d="M917 271h-271l-265 458h223c29 0 54-14 69-39l244-419z m-4-61l-115-200a80 80 0 0 0-69-39h-469l140 239h513z m-442 244l-263-452-114 200c-15 25-15 56 0 79l237 413 140-240z" horiz-adv-x="1000" />

<glyph glyph-name="onedrive" unicode="&#xe841;" d="M759 421q33-2 62-16 29-13 50-37 21-23 34-53 12-29 12-62 0-35-14-66-13-31-36-54-23-23-54-36-30-14-65-14h-456q-43 0-81 17-38 16-66 44-29 29-45 66-17 38-17 81 0 34 11 66 10 31 31 58 18 26 45 45 27 20 59 30 16 6 30 6 14 3 30 4h0q18 27 42 49 23 21 52 37 28 14 60 23 31 8 64 8 44 0 85-14 41-15 75-41 33-26 57-62 24-36 35-79m-252 144q-47 0-88-19-41-19-71-54 16-4 30-11 14-6 27-14l166-99 96 40q8 3 18 7 10 3 20 5-10 32-30 59-19 26-45 46-26 19-58 29-30 11-65 11m-340-367l344 145-133 80q-20 12-42 18-23 7-46 7-32 0-61-13-27-12-48-34-21-21-33-50-13-28-13-60 0-24 9-49 8-25 23-44m581-63q19 0 37 7 18 6 33 17l-251 149-357-149q18-11 39-17 21-7 43-7m560 65q13 25 13 53 0 26-11 48-10 22-27 37-17 16-40 24-24 9-49 9-15 0-30-4-14-4-28-9-13-5-27-11-13-7-26-12z" horiz-adv-x="1000" />

<glyph glyph-name="box" unicode="&#xe842;" d="M629 281h0c0 54-44 98-98 98s-98-44-98-98h0c0-54 44-98 98-98 54 2 98 46 98 98m65 0c0-89-73-162-163-162-62 0-114 35-143 85-28-52-82-85-144-85a162 162 0 0 0-163 158h0 0v271h0 0a36 36 0 0 0 36 31 32 32 0 0 0 31-31h0 0v-135a163 163 0 0 0 98 33c62 0 114-36 144-86 27 53 81 86 143 86 88-2 161-75 161-165h0m-352 0h0c0 54-44 98-98 98s-98-44-98-98h0c0-54 44-98 98-98 54 2 98 46 98 98m568-110h0c5-6 7-13 7-19 0-10-4-19-13-25-6-4-12-6-19-6-10 0-18 4-25 12l-72 96-71-96h0c-7-8-15-12-25-12a40 40 0 0 0-21 6c-8 6-13 17-13 27 0 6 2 13 7 19h0 0 0l81 110-81 111h0 0 0c-5 6-7 12-7 19 0 10 5 18 13 25 14 10 35 8 46-7h0l71-96 72 96c11 15 30 17 44 7 9-7 13-17 13-28 0-6-2-12-7-18h0 0 0l-83-111 83-110h0z" horiz-adv-x="1000" />

<glyph glyph-name="mime_application" unicode="&#xe843;" d="M833 63v500h-666v-500h666m0 658c46 0 84-38 84-83v-584c0-46-38-83-84-83h-666c-46 0-84 37-84 83v592c0 46 38 83 84 83h666m-289-583v83h210v-83h-210m-144 167l-167 166h113l139-144c13-12 13-43 0-60l-137-137h-113l165 175z" horiz-adv-x="1000" />

<glyph glyph-name="mime_xml" unicode="&#xe844;" d="M856 446c2 14 2 33 9 46 4-13 6-29 14-40 13 2 25 2 38 0-7-10-23-17-32-23 11-10 17-21 23-33-16 0-31 14-43 23-11-13-19-25-34-29 7 12 19 23 21 35-12 4-29 15-37 25 12-2 29-2 41-4m9-94c2 11 2 25 6 33 4-10 4-20 10-29 9 2 19 2 27 0-6-6-16-12-23-16 9-7 13-15 17-25-12 0-23 10-31 16-8-8-13-16-25-21 4 9 14 17 14 25-8 5-20 11-27 19 9 0 21 0 32-2m-38-73c0 9 2 17 4 23 2-6 2-14 9-21 6 2 12 0 18 0-4-4-10-8-16-10 6-4 8-11 10-17-8 0-17 6-23 11-6-7-8-13-16-15 2 6 10 10 10 19-6 2-15 8-19 12 9-2 17-2 23-2m-606 4c-6 0-83-75-92-83-6-6-10-19-21-21s-14 2-18 11-11 23-2 29 116 104 120 108 0 15-2 31c-2 21-4 40-2 61s6 46 13 66c4 13 2 38 18 38 5 0 30-19 23-44-10-35-20-75-16-110 0-6 4-13 8-11 48 36 125 73 146 80 10 2 19 6 29 6 6 0 13-9 19-13 27-23-27-108-31-133 4 0 8 6 16 15l34 31c14 12 29 23 47 25 48 6 34-63 23-86 7 0 21 17 34 30 6 6 12 12 18 16 7 6 11 11 17 9 4 0 19-11 21-25 0-13-4-23-6-36-2-10-2-39 10-39 4 4 13 4 17 6 10 2 8-2 16-4 13-5 3-23-6-30-8-8-21-14-33-14-15 0-25 8-31 21-5 6-9 31-11 37s0 17-8 9l-65-61c-23-23-46 8-41 33s25 55 29 80c-11 0-27-17-34-25l-33-38-33-35c-9-9-19-21-34-23-6 2-18 12-20 27-2 12 2 27 6 37 14 34 52 105 60 140-18-2-96-38-148-81-14-13-2-36 5-50 6-17 27-44 31-50 14-13 2-25-13-23l-21 14c-6 7-12 15-16 21-11 17-21 36-23 54m550 200c-4 17-25-8-36-20-27-36-54-109-58-123-12-42-17-94 11-130 16-20 43-22 70-14 15 4 30 14 34 25 4 8 6 27-15 12-8-4-23-10-48-10-8 0-23 12-27 25-6 21-4 48-4 48 6 35 23 75 37 106l30 54c0 0 8 13 6 27z" horiz-adv-x="1000" />

<glyph glyph-name="save" unicode="&#xe845;" d="M731 767h-556c-50 0-92-42-92-92v-648c0-52 42-94 92-94h648c52 0 92 42 92 92v556l-184 186z m-231-742c-77 0-140 63-140 140s63 139 140 139 140-62 140-139-63-140-140-140z m140 465h-465v185h463v-185z" horiz-adv-x="1000" />

<glyph glyph-name="loading" unicode="&#xe846;" d="M500 577v-114l152 152-152 152v-115c-167 0-302-135-302-302 0-60 17-115 48-160l56 56c-17 31-27 67-27 106-2 123 100 225 225 225z m256-67l-56-56c17-31 27-66 27-106 0-125-102-227-227-227v114l-152-152 152-150v115c167 0 302 135 302 302 0 60-17 115-46 160z" horiz-adv-x="1000" />

<glyph glyph-name="mime_image" unicode="&#xe847;" d="M167 681c-46 0-84-37-84-83v-496c0-46 38-83 84-83h666c46 0 84 37 84 83v494c0 46-38 83-84 83 0 2-666 2-666 2z m0-85h666v-496h-666v496z m521-81a64 64 0 0 1-63-63c0-37 29-62 63-62 37 0 62 29 62 62a64 64 0 0 1-62 63z m-355-86l-83-79v-167h496v67l-167 100-83-44-163 123z" horiz-adv-x="1000" />

<glyph glyph-name="prev" unicode="&#xe848;" d="M758 669l-100 98-416-417 416-417 98 98-316 319 318 319z" horiz-adv-x="1000" />

<glyph glyph-name="mime_video" unicode="&#xe849;" d="M83 723v-746h834v746h-834z m144-694h-94v92h94v-92z m0 184h-94v93h94v-93z m0 187h-94v94h94v-94z m0 183h-94v94h94v-94z m644-554h-94v92h94v-92z m0 184h-94v93h94v-93z m0 187h-94v94h94v-94z m0 183h-94v94h94v-94z" horiz-adv-x="1000" />

<glyph glyph-name="ql-fullscreen" unicode="&#xe84a;" d="M500 767l171-171-417-417-171 171v-417h417l-171 171 417 417 171-171v417h-417z" horiz-adv-x="1000" />

<glyph glyph-name="ql-fullscreen-off" unicode="&#xe84b;" d="M858 767l-177-177-118 118-59-354 354 59-118 118 177 177-59 59z m-362-421l-354-58 118-119-177-177 59-59 177 177 119-118 58 354z" horiz-adv-x="1000" />

<glyph glyph-name="close-circle" unicode="&#xe84c;" d="M500 767c231 0 417-186 417-417s-186-417-417-417-417 186-417 417 186 417 417 417m150-209l-150-150-150 150-58-58 150-150-150-150 58-58 150 150 150-150 58 58-150 150 150 150-58 58z" horiz-adv-x="1000" />

<glyph glyph-name="pin" unicode="&#xe84d;" d="M667 350v333h41v84h-416v-84h41v-333l-83-83v-84h217v-250h66v250h217v84l-83 83z" horiz-adv-x="1000" />

<glyph glyph-name="check" unicode="&#xe84e;" d="M348 167l-198 198-67-69 265-265 569 569-67 67-502-500z" horiz-adv-x="1000" />

<glyph glyph-name="mime_plain" unicode="&#xe84f;" d="M83 725v-83h834v83h-834z m0-167v-83h627v83h-627z m0-166v-84h834v84h-834z m0-167v-83h627v83h-627z m0-167v-83h834v83h-834z" horiz-adv-x="1000" />

<glyph glyph-name="arrowthick-1-n" unicode="&#xe850;" d="M502 767l-289-290 72-73 165 163v-634h104v634l163-163 73 75-288 288z" horiz-adv-x="1000" />

<glyph glyph-name="caret-down" unicode="&#xe851;" d="M902 569c-10 10-23 14-37 14h-730c-14 0-27-4-37-14s-15-23-15-38c0-14 5-27 15-37l365-365c10-10 22-14 37-14s27 4 38 14l364 367c11 10 15 23 15 37 0 13-4 25-15 36z" horiz-adv-x="1000" />

<glyph glyph-name="mime_pdf" unicode="&#xe852;" d="M517 658c-4-54-11-116-23-173v-12c27-67 66-127 121-173 12-10 29-23 43-29 7-4 11-4 17 0 50 6 100 10 150 6 23-4 44-4 67-12 16-7 27-21 27-40 0-10 0-23-4-29-7-27-23-38-50-40-38-4-77 7-111 21-37 13-71 27-104 44-6 4-17 6-23 6-96-12-189-37-279-67-4 0-6-4-6-6-23-37-50-83-79-121-23-29-46-62-88-79-17-6-33-6-54 0-6 4-11 6-17 6-21 7-23 23-21 44 7 23 21 38 38 54 37 38 79 67 123 88 4 0 4 4 6 4 23 6 38 23 46 44 23 46 46 94 73 137 23 40 37 88 56 127 4 7 4 13 4 21-12 56-27 113-33 173-4 27 0 54 6 83 6 17 21 23 33 28 11 4 23 4 34 4 16 0 23-11 33-23 19-38 15-63 15-86z m-146-473c71 28 144 44 217 57-23 25-44 41-67 66-21 23-38 50-54 73-34-62-67-129-96-196z m100 371h0c6 7 6 11 10 13 11 33 13 66 7 100-5 10-7 23-11 37-4 7-6 7-12 11-5-7-7-11-7-13-6-37-4-77 5-112 2-11 4-23 8-36z m277-331v-6c29-11 62-23 94-29 12-5 29-5 46 0 10 0 12 6 6 16-6 7-17 7-23 11-23 6-46 6-73 6-21 2-35 2-50 2z m-494-123c-44-37-87-77-112-127 50 27 79 77 112 127z" horiz-adv-x="1000" />

<glyph glyph-name="menu-resize" unicode="&#xe853;" d="M627 767c0-277 0-554 0-834-31 0-62 0-94 0 0 277 0 557 0 834 32 0 63 0 94 0z m-160 0c0-277 0-554 0-834-32 0-63 0-94 0 0 277 0 555 0 834 31 0 62 0 94 0z" horiz-adv-x="1000" />

<glyph glyph-name="arrow-circle" unicode="&#xe854;" d="M500 767c-229 0-417-188-417-417s188-417 417-417 417 188 417 417-188 417-417 417z m0-577l-260 260 60 60 200-200 200 200 60-60-260-260z" horiz-adv-x="1000" />

<glyph glyph-name="tn-error" unicode="&#xe855;" d="M500 767l-342-152v-227c0-211 146-407 342-455 196 48 342 244 342 455v227l-342 152z m38-257v-227h-75v227h75z m-38-385c-27 0-50 23-50 50 0 27 23 50 50 50l0 0c27 0 50-23 50-50l0 0c0-27-23-50-50-50" horiz-adv-x="1000" />

<glyph glyph-name="warning-alert" unicode="&#xe856;" d="M538 256h-75v152h75m0-304h-75v75h75m-455-189h834l-417 720-417-720z" horiz-adv-x="1000" />

<glyph glyph-name="caret-right" unicode="&#xe857;" d="M719 388l-365 364c-10 11-23 15-35 15-13 0-27-4-38-15s-14-23-14-37v-730c0-14 4-27 14-37s23-15 38-15c14 0 27 4 37 15l365 365c10 10 14 22 14 37 0 15-6 27-16 38z" horiz-adv-x="1000" />

<glyph glyph-name="caret-left" unicode="&#xe858;" d="M281 388l365 364c10 11 23 15 35 15 15 0 27-4 38-15s14-23 14-37v-730c0-14-4-27-14-37s-23-15-38-15-27 4-37 15l-363 365c-10 10-14 22-14 37 0 15 4 27 14 38z" horiz-adv-x="1000" />

<glyph glyph-name="text-label" unicode="&#xe859;" d="M854 758l63-237-52-15c-25 48-50 94-80 119-29 23-62 23-95 23h-136v-571c0-27 0-54 19-69s54-14 92-14v-54h-327v56c35 0 72 0 91 14s19 42 19 69v571h-135c-34 0-67 0-96-23s-54-71-79-119l-55 13 63 237h708z" horiz-adv-x="1000" />

<glyph glyph-name="mime_audio" unicode="&#xe85a;" d="M842 754h-21l-417-56c-39-6-71-40-71-88v-45-7-329c-23 6-54 6-87 0-90-21-167-100-167-177 0-73 73-123 167-100 89 21 167 100 167 177v4 7 354l418 56v-235c-23 6-54 6-87 0-90-21-167-100-167-177s73-123 167-100c89 20 166 100 166 177v4 6 419 6 21c13 50-25 83-68 83z" horiz-adv-x="1000" />

<glyph glyph-name="opennew" unicode="&#xe85b;" d="M592 767v-92h166l-454-456 67-67 454 454v-166h92v327m-92-742h-650v650h325v92h-325c-50 0-92-42-92-92v-648c0-52 42-94 92-94h648c50 0 92 42 92 92v325h-92l2-325 0 0z" horiz-adv-x="1000" />

<glyph glyph-name="zip" unicode="&#xe85c;" d="M594 119h-94v91h-92v92h92v-92h92m2 280h-94v-92h92v-92h-92v92h-92v92h92v91h-92v94h92v-92h92m233 184h-648c-52 0-94-42-94-92v-648c0-52 42-94 94-94h648c50 0 92 42 92 92v650c0 50-42 92-92 92z" horiz-adv-x="1000" />

<glyph glyph-name="hide" unicode="&#xe85d;" d="M494 483l121-118c0 2 0 4 0 6 0 62-50 114-115 114-2-2-4-2-6-2m-163-31l59-58c-2-9-2-17-2-25 0-63 50-115 114-115 8 0 17 2 25 2l58-58c-25-13-54-21-83-21-104 0-189 86-189 190-3 31 6 60 18 85m-210 211l85-86 17-17c-63-50-113-114-142-189 65-167 227-283 417-283 58 0 115 10 167 31l16-17 111-110 48 48-671 670m331-152c104 0 190-85 190-189 0-25-5-48-15-69l110-110c57 48 103 110 130 179-65 166-227 283-417 283-52 0-104-10-152-27l81-81c25 10 48 14 73 14z" horiz-adv-x="1000" />

<glyph glyph-name="mime_msoffice" unicode="&#xe85e;" d="M325 110c-23 0-44-18-44-41 0-15 9-29 23-36l167-89c12-9 27-11 44-11 10 0 18 2 29 4l56 17v156h-275 0z m0 0c-23 0-44-18-44-41 0-15 9-29 23-36l167-89c12-9 27-11 44-11 10 0 18 2 29 4l56 17v156h-275 0z m213 653c-9 2-17 4-23 4-15 0-27-2-40-9-2-2-271-145-271-145-4-3-6-5-10-7h-2c0-4-2-4-4-6l-3-2-4-4c-4-4-8-11-8-11-10-12-15-29-15-45v-386c0-23 19-42 44-42 6 0 13 3 17 5l77 41c14 7 25 19 31 32 2 2 2 6 4 10v2 2 4 4 207 64c0 19 9 34 21 46 0 0-6-6 0 0s15 11 23 13c8 4 227 79 227 79v127l-64 17z m0 0c-9 2-17 4-23 4-15 0-27-2-40-9-2-2-271-145-271-145-4-3-6-5-10-7h-2c0-4-2-4-4-6l-3-2-4-4c-4-4-8-11-8-11-10-12-15-29-15-45v-386c0-23 19-42 44-42 6 0 13 3 17 5l77 41c14 7 25 19 31 32 2 2 2 6 4 10v2 2 4 4 207 64c0 19 9 34 21 46 0 0-6-6 0 0s15 11 23 13c8 4 227 79 227 79v127l-64 17z m243-69l-239 69c35-13 56-42 56-80v-668c0-36-23-67-56-78 8 3 241 67 241 67 36 11 61 42 61 79v532c-2 37-27 68-63 79h0z" horiz-adv-x="1000" />

<glyph glyph-name="mime_access" unicode="&#xe85f;" d="M604 740c38 0 75-2 113-7l27-4 41-8c15-2 30-6 46-11s29-10 44-16c13-6 23-13 31-21 7-4 11-15 11-23v-600c0-10-4-19-13-25-8-8-19-15-31-21s-27-10-44-17c-14-4-31-8-46-10s-29-6-39-8l-29-4c-38-5-75-7-111-7-37 0-75 2-112 7-7 0-17 2-27 4l-42 8c-15 2-29 6-46 10s-29 11-42 17-22 13-31 21-12 17-12 25v92h-173c-9 0-17 4-25 10-6 6-11 15-11 25v346c0 8 5 17 11 25 6 6 14 10 25 10h173v92c0 10 4 19 12 25 9 8 19 15 31 21s28 10 42 17c15 4 31 8 46 10s29 6 40 8c12 2 22 2 29 4 37 5 75 5 112 5m0-52l-58-3-67-6a322 322 0 0 1-64-12c-21-4-40-11-57-19 17-8 36-15 57-19l64-12 65-7c21-2 41-2 60-2l61 2 64 7a322 322 0 0 1 65 12c21 4 39 13 56 19-17 8-35 15-56 19l-65 12-66 6c-21 3-40 3-59 3m-356-413h87l21-62h69l-100 272h-69l-98-270h69m638-157v125c-19-8-38-14-61-20l-69-13-68-6c-23-2-44-2-63-2s-39 0-58 2l-58 6a35 35 0 0 0-21-6h-121v-84c8-6 19-10 31-16l44-13c17-4 33-6 50-8l50-6 48-4h35c11 0 21 0 36 2l48 2c16 0 33 2 50 6 18 2 35 6 50 8l43 13c15 4 25 8 34 14m0 184v150c-19-9-38-15-61-21l-69-13-68-6c-23-2-44-2-63-2-16 0-35 0-52 2l-52 4v-156l52-4 52-2h38l46 2 50 6 50 8 43 13c15 6 25 12 34 19m0 208v150c-19-8-38-15-61-21l-69-12-68-7c-23-2-44-2-63-2s-39 0-62 2l-69 7c-23 2-46 6-69 12s-41 13-60 21v-42h121c8 0 16-4 25-10 6-6 10-15 10-25v-117l52-4 52-2h38l46 2 50 6 50 9 43 12 34 21m-602-121l29 84 27-84h-56z" horiz-adv-x="1000" />

<glyph glyph-name="mime_excel" unicode="&#xe860;" d="M881 715c9 0 17-5 25-11 7-6 11-14 11-25v-660c0-11-4-17-11-25-6-7-14-11-25-11h-554c-8 0-17 4-25 11-6 6-10 14-10 25v123h-173c-9 0-17 4-25 10-6 6-11 15-11 25v346c0 8 5 17 11 25 6 6 14 10 25 10h173v121c0 11 4 17 10 25 6 6 15 11 25 11m-35-409l50-91h75l-84 133 82 131h-71l-46-83-2-2-2-2c-6 14-15 29-23 43-6 15-15 30-23 44h-75l79-133-85-133h75m337-175v104h-235v-104m235 156v129h-79v-129m79 181v131h-79v-131m79 183v105h-235v-105m521-520v104h-234v-104m234 156v129h-234v-129m234 181v131h-234v-131m234 183v105h-234v-105h234z" horiz-adv-x="1000" />

<glyph glyph-name="mime_powerpoint" unicode="&#xe861;" d="M552 715c33 0 67-5 98-13s60-21 88-37c27-15 52-34 72-57 23-23 42-45 57-73 16-27 29-56 37-87s13-63 13-98-4-67-13-98-21-60-37-87-36-52-57-73c-22-23-45-42-72-57-28-16-57-29-88-37s-62-13-98-13c-29 0-58 5-87 11s-57 17-82 31-50 29-70 50c-23 19-42 42-61 67h-133c-9 0-17 4-25 10-6 4-11 13-11 23v346c0 8 5 17 11 25 6 6 14 10 25 10h135c17 25 38 46 61 67 20 19 45 35 70 50 25 13 53 23 82 31 27 4 56 9 85 9m27-55v-285h286c-5 38-13 73-30 106s-35 63-62 88c-25 25-54 46-88 62s-68 27-106 29m-183-262c0 17-2 29-8 40s-13 20-21 27-21 12-34 14c-12 4-27 4-41 4h-111v-273h65v98h44a131 131 0 0 1 39 7c13 4 25 10 34 16 10 7 18 17 25 27 4 13 8 25 8 40m156-360c27 0 54 4 79 10s48 17 71 29 44 27 63 46c18 17 35 35 48 56 14 21 25 44 35 69 8 25 15 50 17 77h-338v335c-39-4-79-14-114-31s-67-41-94-71h146c8 0 16-4 25-10 6-6 10-15 10-25v-348c0-8-4-17-10-25-7-6-15-10-25-10h-146c14-17 31-32 48-44 18-13 37-23 56-33 21-9 42-17 62-21l67-4m-267 395c13 0 23-2 32-8s12-15 12-29c0-6-2-11-4-15s-6-8-10-10-9-4-15-4c-4-2-10-2-17-2h-37v68h39z" horiz-adv-x="1000" />

<glyph glyph-name="mime_word" unicode="&#xe862;" d="M881 715c9 0 17-5 25-11 7-6 11-14 11-25v-660c0-11-4-17-11-25-6-7-14-11-25-11h-554c-8 0-17 4-25 11-6 6-10 14-10 25v123h-173c-9 0-17 4-25 10-6 6-11 15-11 25v346c0 8 5 17 11 25 6 6 14 10 25 10h173v121c0 11 4 17 10 25 6 6 15 11 25 11m-33-338l50-164h56l54 272h-58l-33-162-46 156h-46l-50-156-33 162h-59l54-272h57m625-175v104h-521v-104m521 156v129h-365v-129m365 181v131h-365v-131m365 183v105h-521v-105h521z" horiz-adv-x="1000" />

<glyph glyph-name="mime_openoffice" unicode="&#xe863;" d="M500 767c-229 0-417-188-417-417 0-29 2-58 9-85 37 10 75 14 114 14 65 0 125-14 179-37 71 50 159 81 255 81 58 0 114-13 166-33 2-2 4-5 4-7 0-4-2-6-6-6h-8c-11 0-21 2-31 2-146 0-277-54-357-162-2-2-4-7-4-7-2-2-2-2-4-2s-2 0-4 2c-75 71-175 100-288 103 57-163 211-280 392-280 229 0 417 188 417 417s-188 417-417 417z m327-250h-6c-4 0-8 2-15 2-85 8-164-15-216-75-2-2-5-2-7 0-41 46-100 66-166 73-23 2-48 2-71-2-2 0-4 2-4 4s0 2 2 4h2c42 23 89 33 142 27 37-4 70-15 100-31 43 25 95 37 150 33 29-2 58-10 85-23 2 0 4-2 4-2 2 0 2-2 2-4 2-4 0-6-2-6z" horiz-adv-x="1000" />

<glyph glyph-name="mime_document" unicode="&#xe864;" d="M83 560v-83h440v83h-440z m0-166v-84h834v84h-834z m0-167v-83h627v83h-627z m0-167v-83h834v83h-834z m807 663h-250c-13 0-27-13-27-27v-194c0-17 12-27 27-27h250c12 0 27 13 27 27v194c0 14-13 27-27 27m-223-194l50 63 33-44 50 62 63-83h-196z m-584 194v-83h440v83h-440z" horiz-adv-x="1000" />

<glyph glyph-name="mime_presentation" unicode="&#xe865;" d="M83 54h834v592h-834v-592z m538 446h210v-60h-210v60z m0-121h210v-60h-210v60z m0-119h121v-60h-121v60z m-271 269v-179h179c0-96-79-179-179-179s-179 79-179 179 83 179 179 179z" horiz-adv-x="1000" />

<glyph glyph-name="mime_spreadsheet" unicode="&#xe866;" d="M823 673h-740v-646h834v646h-94z m-646-94h188v-94h-188v94z m0-183h188v-94h-188v94z m0-186h188v-93h-188v93z m646-89h-369v94h371v-94z m0 183h-369v94h371v-94z m0 186h-369v93h371v-93z" horiz-adv-x="1000" />

<glyph glyph-name="mime_yaml" unicode="&#xe867;" d="M467 733l-150-225v-141h-92v141l-142 225h102l92-143 92 143h98 0z m154-285h-167l-33-81h-73l156 366h75l148-366h-79l-27 81h0z m-27 73l-52 133-57-133h109 0z m-367-196v-358h77v248l81-167h61l83 173v-254h73v358h-102l-90-162-85 162h-98 0z m690-279h-190v279h-79v-358h269v79h0z" horiz-adv-x="1000" />

<glyph glyph-name="mime_photoshop" unicode="&#xe868;" d="M83 58v594c0 4 2 6 7 6h33l44 2c14 3 33 0 50 3h52c48 0 87-7 119-19 29-11 56-25 77-48 18-19 33-42 41-67s13-50 13-75c0-50-13-89-36-123s-56-56-93-71c-40-14-84-18-130-18h-29-25v-184c0-4-2-8-6-8h-110c-5 0-7 2-7 8h0z m125 488v-194c9 0 15-2 23-2h32c22 0 45 4 66 10 19 5 36 17 48 32s19 33 19 60a113 113 0 0 1-13 52c-10 15-23 27-39 34-21 8-44 12-69 12h-40c-14-2-22-2-27-4h0z m671-158c-16 8-35 14-56 18s-42 9-65 9c-12 0-23-2-35-5-8-2-15-6-19-12-2-4-4-10-4-15a23 23 0 0 1 6-14c4-6 13-13 19-15l42-19c31-10 60-25 89-41 19-13 36-29 46-48 8-19 15-40 13-61 0-27-9-54-23-77-17-23-40-41-65-52-29-12-62-18-104-18-27 0-52 2-79 8-21 4-40 10-59 19a12 12 0 0 0-6 10v100c0 2 0 4 2 4h4c23-12 46-23 71-29 23-6 46-8 69-8s38 2 48 8c8 4 15 15 15 25 0 8-5 15-15 23-8 8-29 17-56 27-29 10-57 25-82 42a127 127 0 0 0-43 50c-9 18-15 39-13 58 0 25 6 48 19 71 15 23 35 42 60 52 27 15 61 21 102 21 23 0 48-2 71-4 17-2 34-7 50-13 2 0 4-2 7-4 0-2 2-4 2-6v-94c0-2-2-4-2-6-3-4-7-4-9-4h0z" horiz-adv-x="1000" />

<glyph glyph-name="mime_flash" unicode="&#xe869;" d="M146-60v162h4c63 0 110 29 154 71 29 33 56 71 73 112 27 46 40 96 63 146 12 44 33 94 60 134 33 60 73 104 129 143 29 21 56 38 90 44 29 8 62 15 94 15h43v-161h-12c-40 0-77-10-111-33-23-21-39-33-60-56s-29-44-40-71c0-4-4-4-4-4h140v-167h-6-190c-6 0-6 0-6-6-23-61-46-111-88-161-73-93-166-146-279-171-12-4-29-4-40-6-12 9-14 9-14 9z" horiz-adv-x="1000" />

<glyph glyph-name="mime_android" unicode="&#xe86a;" d="M692 233c-19 0-36 15-36 36 0 19 15 35 36 35 18 0 35-14 35-35s-17-36-35-36m-384 0c-18 0-35 15-35 36 0 19 15 35 35 35 19 0 36-14 36-35s-17-36-36-36m396 211l69 121c4 6 2 16-6 18-7 5-17 2-19-6l-71-121c-54 25-114 38-179 38s-125-15-179-38l-71 121c-4 6-13 8-19 6-6-4-8-12-6-18l69-121c-115-65-196-186-209-329h834c-13 143-94 264-213 329" horiz-adv-x="1000" />

<glyph glyph-name="mime_c" unicode="&#xe86b;" d="M871 179v342h0c0 12-2 25-8 37a84 84 0 0 1-28 27l-295 171c-27 15-52 15-80 0l-293-168c-25-15-36-36-36-63v-344c0-12 2-25 9-35a84 84 0 0 1 27-27l293-171c28-15 53-17 80 0l295 171c11 6 21 14 28 27 6 8 8 21 8 33z m-479 109c2-3 2-5 4-7 23-43 69-71 119-71h0c45 0 89 23 114 61l117-71a248 248 0 0 0-96-90c-131-75-298-29-371 103-2 2-2 4-4 6-60 116-29 260 75 341 119 92 290 69 381-50 2-2 4-4 4-6 5-4 7-8 9-14l-119-69c0 2-2 2-2 4l-6 6c-40 48-109 63-165 36-64-29-94-111-60-179z" horiz-adv-x="1000" />

<glyph glyph-name="mime_java" unicode="&#xe86c;" d="M617 188c-21-7-67-15-134-15-64 0-118 10-118 25 0 8 10 12 10 12l-2 3c-31-7-60-15-60-30 0-23 89-41 170-41 69 0 136 12 165 27l-31 19z m-221-71c-15-2-46-11-46-25 0-21 69-38 133-38 90 0 127 23 130 25l-38 21c-17-4-44-10-92-10-54 0-89 8-89 18 0 2 2 5 2 9h0z m367 143c-3-47-48-79-92-104l4-2c48 13 133 52 125 113-4 29-31 52-67 52-10 0-20-2-29-4h0v-7c31 7 61-16 59-48z m-282-283c125 2 265 25 265 67 0 8-4 12-8 16l-3-2c-12-31-110-56-254-56-93 0-223 21-223 48 0 25 61 40 61 40l-4 2c-42-7-117-25-117-54 0-42 175-63 283-61z m-12-29a1088 1088 0 0 0-163 12l-4-2c50-14 121-23 200-23 152 2 277 40 279 86h-2c-10-15-77-71-310-73z m-192 323c0 23 88 35 129 39l4-2c-16-2-79-14-79-29 0-16 96-27 152-27 96 0 161 15 177 19l25-15c-16-8-87-29-202-29-127 2-206 27-206 44m379 323l-2 2c-37-13-156-58-156-146 0-50 48-77 48-123 0-17-8-31-17-42l4-2c21 13 55 42 55 77 0 32-42 67-42 107 0 62 81 112 110 127z m-58 112c0-129-175-177-175-268 0-65 42-105 67-130h-2c-30 19-109 65-109 142 0 108 202 160 202 283 0 15-2 27-4 34h2c6-9 19-29 19-61" horiz-adv-x="1000" />

<glyph glyph-name="mime_css" unicode="&#xe86d;" d="M135 767l61-748 306-86 298 86 65 746-730 2z m594-248l-212-88h196l-25-281-186-58-192 54-12 144h90l8-69 98-25 108 21 13 121h-319l-13 87 215 92h-219l-12 89h462v-87z" horiz-adv-x="1000" />

<glyph glyph-name="mime_html" unicode="&#xe86e;" d="M135 767l61-748 306-86 298 86 65 746-730 2z m586-244h-354l10-96h336l-25-283-190-52-188 52-12 146h92l6-71 104-29 102 27 13 118h-323l-25 280h462l-8-92z" horiz-adv-x="1000" />

<glyph glyph-name="mime_javascript" unicode="&#xe86f;" d="M83 767v-834h834v834h-834z m440-715c-13-25-35-42-63-50-41-10-81-4-110 15-21 12-35 31-46 52l63 39a30 30 0 0 1 4-6c8-14 14-23 29-29 13-4 44-8 54 17 6 12 4 52 4 93v202h77 0v-214c3-46 5-86-12-119z m323 23c-27-92-179-96-238-35-12 14-20 23-29 39l63 38c16-27 33-40 60-46 38-4 77 8 69 50-8 33-79 42-125 77-48 31-58 110-21 156 13 17 35 29 58 36 9 0 17 2 25 4 48 0 77-13 98-36 7-6 11-12 21-27l-60-39c-9 16-21 27-34 31-20 6-48 0-52-23-2-6-2-12 2-25 9-19 38-27 63-40 73-29 98-62 104-100 4-35-2-56-4-60z" horiz-adv-x="1000" />

<glyph glyph-name="mime_json" unicode="&#xe870;" d="M348-63c-102 30-152 94-152 196v84c0 60-27 89-77 89v86c50 0 73 27 77 83v90c0 52 12 93 37 127s63 56 113 68l23-68c-21-7-38-23-50-40-11-21-17-46-17-83v-90c0-62-27-110-77-133 50-27 77-69 77-136v-89c0-67 23-106 67-119l-21-65z m125-4l-63 34 17 27a191 191 0 0 1 29 102v96h102v-84c0-29-6-62-23-95-14-34-35-59-62-80z m-40 561c0 21 7 37 21 46 13 12 29 16 50 16s38-6 50-16c13-13 21-27 21-46 0-21-6-34-21-46s-29-17-50-17-37 7-50 17-21 27-21 46z m196-492c44 17 67 56 67 123v90c0 62 27 110 77 133-52 23-77 69-77 135v90c0 67-23 106-67 123l23 71c50-13 90-38 113-69 27-33 39-73 39-127v-90c0-56 27-83 77-83v-85c-50 0-77-30-77-90v-94c-4-100-52-162-152-189l-23 62z" horiz-adv-x="1000" />

<glyph glyph-name="mime_markdown" unicode="&#xe871;" d="M858 94h-714c-34 0-61 27-61 58v396c0 33 27 60 61 60h714c34 0 61-27 61-60v-394c-2-33-27-60-61-60z m-714 473a23 23 0 0 1-21-21v-394c0-12 10-21 21-21h714c13 0 21 11 21 21v396c0 12-10 21-21 21-2-2-714-2-714-2z m58-354v275h79l79-100 80 100h79v-275h-79v158l-80-100-77 100v-156h-81v-2z m502 0l-119 131h80v141h79v-139h79l-119-133h0z" horiz-adv-x="1000" />

<glyph glyph-name="mime_perl" unicode="&#xe872;" d="M725 348c17-38 19-77 15-117h0c-5-35-27-68-50-96-17-18-40-45-65-54-8-4 2 15 2 17 8 12 17 23 27 33 13 17 25 34 31 52 25 65 19 142-18 200-21 32-48 59-77 84-15 12-27 23-40 37-2 4-27 34-19 40 2 2 54-52 61-56 21-17 43-32 62-50 29-30 56-57 71-90z m192 2h0c0-229-188-417-417-417s-417 188-417 417 188 417 417 417 417-188 417-417z m-521-277c-19 10-44 29-79 69s-46 79-48 116 10 84 33 119c25 36 90 104 111 127 22 23 52 54 54 92l4 85c0 11 0 19-8 23h0c-9 4-9-14-7-23 0-8-2-31 0-58 0-25-6-42-21-60s-45-42-66-57c-23-14-94-66-121-104-25-35-42-60-44-114-2-57 19-115 56-159 40-44 107-71 125-79 21-6 38-12 42-4 6 10-12 17-31 27z m71-44h0c-4 0-2-12-9-19-6-8-14-8-14-12 2-2 12 2 19 8 4 9 6 23 4 23z m-32 115c-18 27-41 94-41 135 0 40 25 106 46 138s41 66 50 98 6 150 6 179c0 27-2 58-11 62h0c-8 4-6-41-6-41s4-109 0-138-14-54-25-75-50-69-69-96c-20-27-47-73-45-123 0-50 27-112 52-143s75-86 87-69c4 6-27 46-44 73z m69-131c0 12 0 25-2 25s-2-11-2-25c0-13-2-26 2-26 4 3 2 13 2 26h0z m40-3c-6 7-4 19-9 19h0c-4 0-2-14 5-23s16-12 18-8c2 2-6 4-14 12z m246 309h0c-15 89-107 146-177 189-32 19-80 44-86 84-2 16-2 33-2 50v18c0 9-8-2-15 7-12 18-6-7-6-15 2-23 6-44 6-67 0-43-8-85-18-127-25-98-46-198-21-298 4-20 12-41 21-60 2-6 8-23 14-25 27-6 46-8 67-29 12-13 23-6 37 0 48 19 88 42 121 81 50 56 71 121 59 192z" horiz-adv-x="1000" />

<glyph glyph-name="mime_php" unicode="&#xe873;" d="M150 471h123c35 0 62-11 79-31s21-48 17-86a141 141 0 0 0-15-48c-6-16-16-29-29-41-15-17-31-27-50-32a227 227 0 0 0-54-6h-56l-17-85h-65l67 329h0m54-52l-27-138h6 7c29 0 54 2 73 9s33 29 39 66c6 32 0 50-17 57-16 4-37 6-60 6h-10-11 0m238 139h64l-18-87h56c31 0 54-6 71-19s20-35 14-71l-31-154h-65l30 146c2 15 2 27-3 33s-14 11-31 11h-52l-39-188h-63l67 329h0m254-87h123c35 0 62-11 79-31s21-48 17-86a141 141 0 0 0-15-48c-6-16-17-29-29-41-15-17-31-27-50-32a227 227 0 0 0-54-6h-57l-16-85h-65l67 329h0m54-52l-27-138h6 6c30 0 55 2 73 9s34 29 40 66c6 32 0 50-17 57-16 4-37 6-60 6h-21" horiz-adv-x="1000" />

<glyph glyph-name="mime_python" unicode="&#xe874;" d="M496 767c-33 0-67-2-96-9-83-14-100-45-100-104v-75h200v-25h-198-75c-58 0-108-35-125-100-19-75-19-123 0-202 15-58 48-100 106-100h69v92c0 64 56 123 125 123h198c56 0 100 46 100 100v187c0 54-46 94-100 104-35 7-71 9-104 9z m-108-61a37 37 0 0 0 37-37 37 37 0 1 0-75 0 37 37 0 0 0 38 37z m335-152v-87c0-69-58-127-125-127h-198c-54 0-100-46-100-100v-190c0-54 46-85 100-100 63-19 123-21 198 0 50 15 100 44 100 100v75h-198v25h198 100c58 0 79 40 100 100 21 63 21 123 0 202-15 58-42 100-100 100l-75 2z m-113-479a37 37 0 1 0 0-75 37 37 0 0 0-37 38c0 20 19 37 37 37z" horiz-adv-x="1000" />

<glyph glyph-name="mime_ruby" unicode="&#xe875;" d="M183 269l-100-236 190 7c-29 79-60 152-90 229z m494-2c-123-77-244-157-362-238l550-77-188 315z m236 341c-17-27-34-50-50-73l-167-254c-4-6-6-10-4-16 54-90 110-177 160-267 11-13 17-27 27-44l34 654h0z m-734-273c4-4 6-4 11-4 54 27 104 50 154 77 16 11 27 27 44 40 45 44 93 87 143 129 4 4 7 6 7 11l50 100c-21 6-40 12-57 22-4 0-6 0-10-4-46-27-90-54-138-79-23-12-39-33-60-54-29-27-63-60-94-88-6-10-16-16-23-27-23-29-43-60-62-93 12-9 23-19 35-30z m188 40l-77-327c127 79 243 160 362 237-96 28-189 61-285 90z m206 181l106-256 206 310-312-54z m-200-156c94-29 187-60 279-94l-102 252-177-158z m-96-304h0c27 94 46 187 71 283-50-27-100-54-150-77 23-67 48-135 79-206z m567 529c-29 10-61 17-90 27-44 11-87 23-131 33-6 5-10 5-10-4-13-29-30-60-46-93v-7l277 44h0z m-171 71l244-67-44 113c-67-13-133-29-200-46h0z m71-744l-200 27c-84 11-167 27-250 34-29 4-61 0-90 0-27 0-50 0-77-5-4 0-6 0-6-4l623-52c0-2 0 0 0 0z m-654 154c27 61 54 127 79 188 4 6 4 8-2 14-11 11-23 23-34 38l-50-244h5s2 0 2 4z m527 607c43 10 93 20 137 29 4 0 6 4 6 4v4l-197-25c25-12 37-19 54-12z" horiz-adv-x="1000" />

<glyph glyph-name="mime_shell" unicode="&#xe876;" d="M504 308h134 87 23c6 0 4 0 6-4 4-12 0-27 0-39v-21-17c0-4-4-4-6-4h-27-177-29c-7 0-7 0-7 4v21 27c-4 8-4 23-4 33z m-160-54h0s4-6 4-10v-11-10h10 17c4 0 0 0 4 4s0 13 0 17v10c0 4 0 0 4 4s11 5 17 7c33 12 50 62 23 89-4 4-13 6-21 11-6 4-17 6-23 10-10 4-39 13-29 29s38 11 54 6c4 0 6-4 13-4 6-4 6 0 6 4s4 11 4 13c0 4 6 12 4 17-4 4-10 4-12 4-4 0-11 4-13 4h-12c-4 0-4 0-4 4v11 12c-5 4-21 0-23 0h-7c-4-4 0-12 0-12v-11-4c-4-4-10-4-12-4-21-6-29-21-38-40-4-10-4-21 5-29 6-10 16-17 23-23 16-10 33-12 50-23 6-4 16-12 12-21-4-6-17-12-23-12-10-4-23 0-37 4-5 0-11 4-13 6-4 0-10 4-10 4 0-6-4-12-7-20 0-5-6-13-4-17 0-4 7-4 11-4s6-4 12-4c-2-7 4-11 15-11z m496 471h-242-365c-23 0-54 4-77 0-39-6-68-44-73-83v-27-344-165c0-37-4-77 23-106 29-29 63-27 100-27h150 377 94c29 0 56 12 73 40 10 16 13 33 13 54v314 259c10 50-30 85-73 85z m0-669h-182-327-121-29-6v11 16 57 156 160c0 29-4 63 0 94 0 6 0 4 4 4h27 115 327 133 44c4 0 17 4 21 0 4 0 0-10 0-12v-44-148-283c-6 4-6-4-6-11z" horiz-adv-x="1000" />

<glyph glyph-name="mime_sql" unicode="&#xe877;" d="M500 767c-204 0-371-84-371-186v-462c0-102 167-186 371-186s371 84 371 186v462c0 102-167 186-371 186m277-648c0-23-98-92-277-92s-277 69-277 92v104c75-35 173-56 277-56s204 21 277 56v-104m0 210c-60-44-167-71-277-71s-217 27-277 71v129c69-37 167-62 277-62s210 25 277 62v-129m-277 161c-179 0-277 68-277 91s98 94 277 94 277-69 277-92-98-93-277-93z" horiz-adv-x="1000" />

<glyph glyph-name="mime_sqlite" unicode="&#xe878;" d="M500 388l-23-75c-12-46-10-61-4-71 2-2 6-11 12-36 9-33 17-83 17-85-2-31 0-65 2-96h-312a65 65 0 0 0-65 65v577a65 65 0 0 0 65 64h477c-73-79-146-227-169-343z m335 360c88-77 0-256-79-381-58-19-125-61-125-61s7 2 27 13c15 6 57 16 82 21-44-65-80-111-80-111s-75-31-97-102c12 75 35 154 66 238 27 75 121 277 192 339-75-60-158-187-219-346-35-104-54-204-58-287-2-54 2-102 14-138h-6c-10 29-21 82-19 188v8s-6 46-16 86c-4 16-11 31-15 41-2 4 0 23 8 52 13-23 28-45 32-66 0 0-11 52-27 83 4 13 8 27 12 42 13-21 25-42 29-63-6 27-12 52-25 79 21 111 90 255 163 332 39 37 94 75 141 33z m0 0c88-77 0-256-79-381-58-19-125-61-125-61s7 2 27 13c15 6 57 16 82 21-44-65-80-111-80-111s-75-31-97-102c12 75 35 154 66 238 27 75 121 277 192 339-75-60-158-187-219-346-35-104-54-204-58-287-2-54 2-102 14-138h-6c-10 29-21 82-19 188v8s-6 46-16 86c-4 16-11 31-15 41-2 4 0 23 8 52 13-23 28-45 32-66 0 0-11 52-27 83 4 13 8 27 12 42 13-21 25-42 29-63-6 27-12 52-25 79 21 111 90 255 163 332 39 37 94 75 141 33z" horiz-adv-x="1000" />

<glyph glyph-name="mime_svg" unicode="&#xe879;" d="M917 350c0 31-13 63-36 85s-54 36-85 36a118 118 0 0 1 35 85c0 67-54 123-123 123-33 0-64-14-85-35 0 31-13 62-35 85-25 25-55 38-88 38a118 118 0 0 1-85-36c-23-23-36-54-36-85a118 118 0 0 1-85 35c-67 0-123-54-123-123 0-33 14-64 35-85a118 118 0 0 1-85-35c-25-25-38-55-38-88h0v-294c0-71 52-123 123-123h590c69 0 123 52 123 123l-2 294h0z m-663-165h0c9-8 15-10 31-12 30-2 57-13 78-31 18-19 31-46 31-77 0-61-48-109-109-109s-108 48-108 109h63c0-25 20-44 43-44 25 0 44 21 44 44 0 12-4 23-12 31h0c-9 8-19 10-32 12h0c-27 7-54 13-75 34-18 18-31 46-31 77 0 60 48 108 108 108s109-48 109-108h-63c0 25-21 44-43 44-25 0-44-21-44-44-4-13 2-25 10-34z m279-229h-62l-77 369h62l44-217 44 217h62l-73-369z m184 0c-61 0-109 48-109 109v152h0c0 60 48 108 109 108s108-48 108-108h-62c0 25-21 43-44 43-25 0-44-20-44-43v-152c0-25 21-44 44-44 25 0 44 21 44 44h0v43h-44v63h108v-108h0c-2-57-50-107-110-107z m-577 394c0 17 6 33 18 46 25 25 67 25 94 0h136l-96 96c-36 0-67 29-67 66 0 36 29 67 67 67 35 0 66-29 66-67l96-95v135c-25 25-25 67 0 94 25 25 67 25 94 0 25-25 25-67 0-94v-135l96 95c0 36 29 67 66 67 36 0 67-29 67-67 0-35-29-66-67-66l-95-96h135c25 25 67 25 94 0 12-13 19-29 19-46h-723z" horiz-adv-x="1000" />

<glyph glyph-name="mime_vector" unicode="&#xe87a;" d="M388 646v-77h-163c-12 23-40 35-67 35-43 0-77-33-77-77s36-73 79-73c28 0 53 13 67 36h90c-46-44-79-109-79-182v-35h-78v-225h225v225h-77v35c0 63 30 117 77 148v-35h225v35c46-33 78-89 78-148v-35h-78v-225h223v225h-68v35c0 73-30 140-80 188h90c13-23 40-36 67-36 43 0 77 34 77 78s-34 77-77 77c-27 0-52-13-67-36h-162v73h-225v-6z m77-75h77v-77h-77v77z m-230-375h78v-75h-78v75z m453 0h77v-75h-77v75z" horiz-adv-x="1000" />

<glyph glyph-name="mime_rtf" unicode="&#xe87c;" d="M333 348l-43 4c-44 0-67-12-77-39v-261h-130v413h123l7-55c22 44 54 61 89 61 13 0 27-4 38-6l-7-117z m217 221v-104h71v-90h-71v-190c0-16 4-27 6-33 7-6 17-6 34-6 12 0 23 0 33 4v-94c-21-6-46-6-71-6-44 0-77 10-96 29-23 23-29 54-29 94v206h-54v90h54v104h123v-4z m146-517v327h-61v90h61v33c0 46 12 83 44 111 27 27 66 39 116 39 21 0 40-4 61-10v-94h-29c-40 0-61-17-61-50v-29h79v-88h-79v-327l-131-2h0z" horiz-adv-x="1000" />
</font>
</defs>
</svg>
